#TITLE:20 November;
#SUBTITLE:(Final Edit);
#ARTIST:DJ Nagureo;
#TITLETRANSLIT:;
#SUBTITLETRANSLIT:;
#ARTISTTRANSLIT:;
#CREDIT:;
#BANNER:20, November-banner.png;
#BACKGROUND:20 November-bg.png;
#LYRICSPATH:;
#CDTITLE:;
#MUSIC:20 November.mp3;
#MUSICLENGTH:95.118;
#OFFSET:-0.640;
#SAMPLESTART:60.125;
#SAMPLELENGTH:12.000;
#SELECTABLE:YES;
#BPMS:0.000=129.880;
#STOPS:;
#BGCHANGES:;
#FIRSTBEAT:8.000;

#LASTBEAT:197.500;

#SONGFILENAME:Songs/ERICth The 3rd/20 November/20 Nov.sm;

#HASMUSIC:1;

#HASBANNER:1;


//---------------dance-single - MANIAC----------------
#NOTES:
     dance-single:
     MANIAC:
     hard:
     7:
     0.374,0.408,0.053,0.032,0.279,241.000,5.000,3.000,0.000,0.000:

0000
0000
0000
0000
,
0000
0000
0000
0000
,
0010
0010
0010
0010
,
0010
0010
0010
0010
,
0010
0000
0000
0000
0001
0000
1000
0100
0000
0000
0100
0000
0000
0000
0000
0000
,
0010
0000
0000
0000
0010
0000
0001
0100
0001
0100
0001
1000
0001
0000
0100
0010
,
0000
1000
0100
0010
,
0001
0010
0001
0100
0001
0000
0000
0000
,
0010
0000
0000
0000
0001
0000
1000
0100
0000
0000
0100
0000
0000
0000
0000
0000
,
0010
0000
0000
0000
0010
0000
0001
0100
0001
0100
0001
1000
0001
0000
0100
0010
,
0000
1000
0100
0010
,
0001
0010
0001
0100
0001
0000
0000
0000
,
1000
0000
0000
0100
0000
0000
0100
0000
,
0001
0000
0000
0010
0000
0000
0010
0000
,
1000
0000
0000
0100
0000
0000
0010
0000
,
0001
0000
0000
1000
0000
0000
0001
0000
,
1000
0010
0000
0100
0000
0001
1000
0100
0000
0000
0000
0000
0000
0000
0000
0000
,
0010
0100
0000
1000
0000
1000
0100
0010
0000
0000
0000
0000
0000
0000
0000
0000
,
0001
0100
0000
1000
0000
0100
0001
0010
0000
0000
0000
0000
0000
0000
0000
0000
,
0010
0100
0000
0100
0000
0100
0001
1000
0000
0000
0000
0000
0000
0000
0000
0000
,
1000
0010
0000
0100
0000
0001
1000
0100
0000
0000
0000
0000
0000
0000
0000
0000
,
0010
0100
0000
1000
0000
1000
0100
0010
0000
0000
0000
0000
0000
0000
0000
0000
,
0001
0100
0000
1000
0000
0100
0001
0010
0000
0000
0000
0000
0000
0000
0000
0000
,
0010
0100
0000
0100
0000
0100
0001
1000
0000
0000
1000
0000
0100
0000
0010
0000
,
0001
1000
0100
0010
0001
0000
1000
0000
,
0100
0100
1000
0010
,
0001
0100
0010
0100
,
0001
0010
1000
0010
,
0100
0000
0010
0000
1001
0000
0100
0010
,
0001
0000
0100
0010
0001
0000
0100
0010
,
0001
0000
0100
0010
0001
0000
0000
0100
,
0010
1000
0000
0100
0010
1000
0000
0100
,
0010
1000
1000
0000
0010
0001
0010
0200
,
0000
0000
0000
0000
0000
0000
0000
0000
1300
0000
0000
1000
0000
0000
1000
0000
,
0000
0000
0000
0000
0100
0000
0100
0000
0010
0000
0000
0010
0000
0000
0010
0000
,
0000
0000
1000
0001
0010
0001
1000
0010
,
1000
0000
0000
1000
0000
0000
0000
0000
0010
0000
0001
0000
0010
0000
0001
0000
,
0000
0000
0000
0000
0010
0000
1000
0000
0100
0000
1000
0100
0000
1000
0100
0000
,
0000
0000
0000
0000
0100
0000
0000
0000
0100
0000
0000
0010
0000
0000
0100
0000
,
0000
0000
0000
0000
1000
0000
1000
0000
0100
0000
0000
0100
0000
0000
0200
0000
,
0000
0300
1001
0100
,
0010
0000
0000
0000
0001
0000
1000
0100
0010
0000
0000
0001
0000
0000
0100
0000
,
0000
0000
1000
0000
1000
0000
0010
0100
,
0001
0100
0100
0010
,
1001
0001
1001
0100
,
0010
0000
0000
0000
0001
0000
1000
0100
0010
0000
0000
0001
0000
0000
0100
0000
,
0000
0000
1000
0000
1000
0000
0010
0100
,
0001
0100
0100
0010
,
1001
0000
0001
0200
0300
0000
0000
0000;

//---------------dance-single - ANOTHER----------------
#NOTES:
     dance-single:
     ANOTHER:
     medium:
     4:
     0.294,0.311,0.011,0.137,0.000,182.000,1.000,13.000,0.000,0.000:

0000
0000
0000
0000
,
0000
0000
0000
0000
,
0000
0000
0000
0000
,
0010
0000
0010
0000
,
1000
0001
0100
0010
,
1000
0000
0001
0010
0001
1000
0001
0000
,
0100
0010
1000
0100
,
0100
1000
0100
0001
0100
0000
0010
0000
,
1000
0001
0010
0100
,
1000
0010
0010
0000
,
0100
0100
0001
0001
,
1000
0100
0010
0001
,
2000
0000
0000
0000
,
3002
0000
0000
0000
,
2003
0000
0000
0000
,
3020
0000
0000
0000
0000
0000
1000
0030
,
1000
0000
0100
0000
0010
0001
1000
0000
,
0100
0000
0010
0000
0010
1000
0100
0000
,
0100
0000
1000
0000
0100
0001
1000
0000
,
0010
0000
0100
0000
0010
0100
0001
0000
,
0010
0000
1000
0000
0010
0100
1000
0000
,
0010
0000
0100
0000
0100
0010
0100
0000
,
1000
0000
0001
0000
1000
0010
0001
0000
,
0001
0100
0010
1000
,
0001
1000
1000
0001
,
1000
0100
0010
0001
,
1000
1001
0010
0100
,
0010
0001
1000
0010
,
0100
1000
0010
0000
0001
0000
0000
0000
,
0001
1000
0000
0010
,
0100
0000
0000
0001
0100
0000
0100
0000
,
0000
0000
0000
0001
0100
0000
0000
1000
,
0100
0000
0100
0000
0010
0000
1000
0100
,
0010
0000
0001
0000
1000
0000
0001
1000
,
0001
0100
0010
0010
,
1000
0000
0001
0100
0010
0100
1000
0001
,
0100
0000
0010
0000
0010
1000
0001
0010
,
0001
1000
0001
0000
0010
0000
0100
0000
,
1000
0001
0100
0010
,
1000
0000
0100
0010
0001
0000
1000
0000
,
0100
0000
0010
0000
0200
0000
0000
0300
,
2000
0000
0000
0000
3020
0000
0000
0030
,
1000
0000
0001
0000
0020
0000
0000
0030
,
0002
0000
0000
0003
1000
0000
0100
0000
,
0010
0000
1000
0001
2000
0000
0000
3000
,
0200
0000
0000
0300
0010
0000
0001
1000
,
0010
0000
1000
0100
0020
0000
0000
0030
,
0001
1000
0100
0010
,
0001
0000
1000
0002
0000
0000
0000
0000
,
0000
0000
0000
0003
0000
0000
0000
0000;

//---------------dance-single - BASIC----------------
#NOTES:
     dance-single:
     BASIC:
     easy:
     3:
     0.143,0.204,0.000,0.042,0.000,91.000,0.000,4.000,0.000,0.000:

0000
0000
0000
0000
,
0000
0000
0000
0000
,
0000
0000
0000
0000
,
0010
0000
0000
0000
,
1000
0000
0010
0000
,
0000
1000
0010
0000
,
0001
0000
0010
0000
,
0000
0000
0001
0010
,
0100
0000
0000
0000
,
0100
0000
0000
0001
,
0100
0000
0000
0000
,
0010
0000
1000
0100
,
1000
0000
0000
0000
,
0001
0000
0000
0000
,
0010
0000
0000
0000
,
0100
0000
0000
0000
,
1000
0010
0001
0000
,
0001
0100
1000
0000
,
0001
0010
0100
0000
,
0010
0100
1000
0000
,
0010
1000
0001
0000
,
1000
0100
0001
0000
,
1000
0010
1000
0000
,
0001
0100
0001
0000
,
0001
0000
0010
0000
,
0000
0000
1000
0000
,
0000
0010
0010
0000
,
0000
0000
0001
0000
,
0000
1000
0010
0000
,
0010
0010
0100
0001
,
1000
0000
0100
0000
,
0001
0001
0001
0000
,
1000
0100
0010
1000
,
0000
0000
0001
1000
,
0010
0000
0010
0100
,
0100
0000
0001
0000
,
1000
0000
0010
1000
,
0001
0000
0010
0001
,
1000
0000
0010
0001
,
0100
1000
0010
0010
,
0010
0000
2000
0000
,
0000
0000
0000
0000
,
0000
0000
3002
0000
,
0000
0000
0000
0000
,
0000
0000
0203
0000
,
0000
0000
0000
0000
,
0000
0000
0320
0000
,
0000
0000
0000
0000
,
0000
0000
0031
0000
,;
